<?xml version="1.0" standalone="no"?>
<!DOCTYPE svg PUBLIC "-//W3C//DTD SVG 1.1//EN" "http://www.w3.org/Graphics/SVG/1.1/DTD/svg11.dtd" >
<svg xmlns="http://www.w3.org/2000/svg">
<metadata>Generated by IcoMoon</metadata>
<defs>
<font id="everrich-webfont" horiz-adv-x="1024">
<font-face units-per-em="1024" ascent="960" descent="-64" />
<missing-glyph horiz-adv-x="1024" />
<glyph unicode="&#x20;" horiz-adv-x="512" d="" />
<glyph unicode="&#xe900;" glyph-name="whatsapp" d="M521.042 918.515c-260.521 0-471.216-210.695-471.216-471.216 0-85.416 22.778-169.409 66.909-243.438l-83.993-253.403 260.521 83.993c69.757-38.438 149.479-58.368 227.778-58.368 260.521 0 471.216 212.118 471.216 471.216 0 260.521-210.695 471.216-471.216 471.216zM521.042 54.383c-76.875 0-152.327 22.778-216.389 65.486l-150.903-48.403 49.827 145.209c-48.403 66.909-75.452 148.056-75.452 230.625 0 216.389 176.528 392.917 392.917 392.917s392.917-176.528 392.917-392.917c0-216.389-176.528-392.917-392.917-392.917zM647.744 386.084c-15.659 0-46.979-61.216-66.909-61.216-4.271 0-9.966 1.423-14.236 4.271-35.591 17.084-65.486 35.591-93.959 62.639-24.202 22.778-49.827 56.945-64.063 85.416-1.423 2.847-2.847 5.695-2.847 9.966 0 14.236 42.709 41.284 42.709 65.486 0 5.695-31.32 91.111-35.591 102.5-5.695 15.659-9.966 21.354-25.625 21.354-8.541 0-15.659 1.423-22.778 1.423-12.813 0-22.778-5.695-32.743-14.236-29.896-28.472-45.555-56.945-46.979-98.229v-5.695c0-42.709 19.93-86.841 44.132-121.007 54.097-79.722 109.618-149.479 199.306-189.341 27.048-12.813 88.264-38.438 119.584-38.438 35.591 0 93.959 22.778 108.195 56.945 5.695 14.236 9.966 31.32 9.966 46.979 0 2.847 0 5.695-1.423 9.966-4.271 7.118-105.347 61.216-116.736 61.216z" />
<glyph unicode="&#xe901;" glyph-name="weibo" d="M755.938 448.723c-14.236 4.271-22.778 7.118-15.659 24.202 15.659 38.438 17.084 72.604 0 96.806-31.32 45.555-116.736 42.709-214.966 1.423 0 0-31.32-12.813-22.778 11.389 15.659 48.403 12.813 89.688-11.389 112.466-54.097 54.097-195.034-1.423-317.466-123.854-92.534-91.111-145.209-187.917-145.209-270.486 0-160.868 205-257.674 405.729-257.674 263.368 0 438.472 152.327 438.472 274.757 0 72.604-61.216 113.889-116.736 130.972zM435.625 99.938c-160.868-15.659-298.959 56.945-308.924 162.291s111.041 203.577 270.486 219.236c160.868 15.659 298.959-56.945 308.924-162.291s-111.041-203.577-270.486-219.236zM451.285 400.32c-75.452 19.93-162.291-18.507-195.034-85.416-34.166-68.334-1.423-145.209 75.452-169.409 79.722-25.625 173.681 14.236 206.424 86.841s-7.118 146.632-86.841 167.986zM392.917 225.215c-15.659-24.202-49.827-35.591-74.028-24.202s-31.32 39.861-15.659 64.063c15.659 24.202 46.979 34.166 71.181 24.202 25.625-11.389 34.166-39.861 18.507-64.063zM444.167 290.702c-5.695-9.966-18.507-14.236-27.048-9.966-9.966 4.271-12.813 14.236-7.118 24.202 5.695 8.541 17.084 12.813 27.048 9.966 8.541-4.271 12.813-14.236 7.118-24.202zM983.717 491.431c-7.118-19.93-27.048-29.896-46.979-24.202-19.93 7.118-29.896 27.048-24.202 46.979 19.93 59.791 7.118 128.125-38.438 177.952s-112.466 69.757-173.681 55.521c-19.93-4.271-39.861 8.541-44.132 28.472s8.541 39.861 28.472 44.132c86.841 18.507 180.799-8.541 243.438-78.298 66.909-69.757 82.57-166.563 55.521-250.556zM858.438 531.292c-5.695-17.084-22.778-25.625-39.861-19.93s-25.625 22.778-19.93 39.861c7.118 19.93 1.423 42.709-12.813 59.791-15.659 17.084-37.014 22.778-58.368 18.507-17.084-4.271-34.166 7.118-38.438 24.202s7.118 34.166 24.202 38.438c42.709 8.541 88.264-4.271 118.159-38.438 32.743-34.166 41.284-81.146 27.048-122.431z" />
<glyph unicode="&#xe902;" glyph-name="wechat" d="M683.334 589.66c11.389 0 22.778 0 32.743-1.423-28.472 138.091-176.528 240.591-344.514 240.591-189.341 0-343.091-128.125-343.091-291.841 0-93.959 51.25-172.257 136.666-232.049l-34.166-102.5 119.584 59.791c42.709-8.541 76.875-17.084 119.584-17.084 11.389 0 21.354 0 32.743 1.423-7.118 22.778-11.389 46.979-11.389 71.181 1.423 150.903 129.549 271.91 291.841 271.91zM499.688 683.619c25.625 0 42.709-17.084 42.709-42.709s-17.084-42.709-42.709-42.709c-25.625 0-51.25 17.084-51.25 42.709s25.625 42.709 51.25 42.709zM259.097 598.203c-25.625 0-51.25 17.084-51.25 42.709s25.625 42.709 51.25 42.709c25.625 0 42.709-17.084 42.709-42.709 1.423-25.625-15.659-42.709-42.709-42.709zM996.529 323.445c0 136.666-136.666 249.132-291.841 249.132-163.716 0-291.841-111.041-291.841-249.132 0-136.666 128.125-249.132 291.841-249.132 34.166 0 68.334 8.541 102.5 17.084l93.959-51.25-25.625 85.416c69.757 51.25 121.007 121.007 121.007 197.882zM610.729 366.153c-17.084 0-34.166 17.084-34.166 34.166s17.084 34.166 34.166 34.166c25.625 0 42.709-17.084 42.709-34.166s-17.084-34.166-42.709-34.166zM800.070 366.153c-17.084 0-34.166 17.084-34.166 34.166s17.084 34.166 34.166 34.166c25.625 0 42.709-17.084 42.709-34.166s-18.507-34.166-42.709-34.166z" />
<glyph unicode="&#xe903;" glyph-name="v-story" horiz-adv-x="4242" d="M459.597 90.616l-271.13 687.743h72.742l224.839-605.081 231.452 605.081h76.048l-274.436-687.743h-59.516zM836.533 470.857h231.452v-56.21h-231.452v56.21zM1279.598 282.39c0-56.21 26.452-99.194 79.354-122.338 23.146-9.92 42.984-16.532 69.436-16.532 46.29 0 85.968 23.146 112.42 66.13 13.226 23.146 16.532 42.984 16.532 66.13 0 59.516-36.371 105.806-99.194 125.646l-109.113 39.678c-85.968 29.758-125.646 82.662-122.338 162.016v23.146c0 9.92 3.306 26.452 9.92 42.984 3.306 13.226 13.226 26.452 23.146 42.984 39.678 52.904 92.58 79.354 162.016 79.354 36.371 0 66.13-9.92 95.888-26.452s52.904-39.678 69.436-69.436c16.532-26.452 23.146-52.904 23.146-82.662v-9.92h-69.436c-3.306 79.354-42.984 119.032-112.42 122.338-42.984 0-79.354-16.532-105.806-52.904-13.226-16.532-16.532-36.371-16.532-52.904 0-42.984 13.226-72.742 39.678-95.888 16.532-13.226 52.904-26.452 99.194-39.678 52.904-16.532 92.58-29.758 119.032-52.904 29.758-26.452 56.21-59.516 66.13-109.113 3.306-16.532 3.306-36.371 3.306-42.984 0-23.146-3.306-46.29-13.226-69.436-16.532-52.904-52.904-92.58-105.806-112.42-26.452-13.226-56.21-16.532-85.968-16.532-59.516 0-112.42 16.532-152.097 56.21-42.984 39.678-66.13 85.968-66.13 148.79l69.436-3.306zM1864.84 90.616v628.227h-162.016v59.516h383.549v-59.516h-155.404v-628.227h-66.13zM2135.97 444.406c0 85.968 36.371 168.63 99.194 238.064 69.436 72.742 155.404 109.113 257.904 109.113 66.13 0 125.646-16.532 181.855-46.29s99.194-72.742 135.564-132.258c36.371-56.21 46.29-119.032 46.29-181.855 0-99.194-39.678-181.855-119.032-251.29-72.742-66.13-162.016-95.888-251.29-95.888-39.678 0-82.662 9.92-132.258 29.758-69.436 29.758-125.646 72.742-165.322 132.258-33.064 52.904-52.904 119.032-52.904 198.388zM2205.406 447.713c0-52.904 9.92-95.888 29.758-135.564 36.371-72.742 85.968-122.338 165.322-148.79 36.371-13.226 66.13-16.532 95.888-16.532 69.436 0 135.564 23.146 195.081 69.436 46.29 36.371 79.354 85.968 95.888 148.79 3.306 23.146 9.92 42.984 9.92 66.13 0 56.21-13.226 105.806-39.678 152.097s-66.13 82.662-112.42 109.113-95.888 39.678-142.178 39.678c-56.21 0-109.113-16.532-162.016-52.904s-85.968-79.354-109.113-132.258c-19.838-33.064-26.452-69.436-26.452-99.194zM2982.423 90.616v687.743h181.855c105.806 0 181.855-23.146 224.839-69.436 29.758-36.371 46.29-82.662 56.21-142.178 0-82.662-36.371-142.178-99.194-188.468-29.758-23.146-66.13-29.758-105.806-29.758l195.081-257.904h-85.968l-234.758 314.113h56.21c85.968 0 142.178 23.146 178.548 69.436 16.532 23.146 26.452 52.904 26.452 82.662 0 66.13-29.758 112.42-95.888 138.871-29.758 13.226-59.516 16.532-92.58 16.532h-138.871v-628.227h-69.436l3.306 6.612zM3749.52 90.616v231.452l-244.678 456.291h72.742l201.694-386.855 195.081 386.855h79.354l-244.678-456.291v-231.452h-59.516z" />
<glyph unicode="&#xe904;" glyph-name="pinterest" d="M512.5-49.542c-48.403 0-93.959 7.118-136.666 19.93 18.507 28.472 38.438 65.486 49.827 103.923 0 0 5.695 21.354 34.166 132.396 15.659-32.743 65.486-59.791 118.159-59.791 155.174 0 261.945 142.361 261.945 331.702 0 142.361-121.007 277.604-307.5 277.604-230.625 0-347.361-165.139-347.361-303.229 0-82.57 31.32-158.021 99.653-185.070 11.389-4.271 21.354 0 24.202 12.813 2.847 8.541 7.118 29.896 9.966 38.438 2.847 12.813 1.423 17.084-7.118 27.048-19.93 22.778-32.743 52.673-32.743 95.382 0 122.431 91.111 232.049 237.743 232.049 129.549 0 202.153-79.722 202.153-186.493 0-139.514-61.216-257.674-153.75-257.674-49.827 0-88.264 41.284-76.875 93.959 14.236 61.216 42.709 126.702 42.709 170.834 0 39.861-21.354 72.604-65.486 72.604-51.25 0-93.959-54.097-93.959-125.278 0 0 0-45.555 15.659-76.875-52.673-224.931-62.639-263.368-62.639-263.368-8.541-37.014-9.966-76.875-8.541-111.041-167.986 75.452-287.57 246.285-287.57 444.167 0 267.639 216.389 484.029 484.029 484.029s484.029-216.389 484.029-484.029c0-267.639-216.389-484.029-484.029-484.029z" />
<glyph unicode="&#xe905;" glyph-name="line" d="M996.529 502.821c0 216.389-217.813 392.917-484.029 392.917s-484.029-176.528-484.029-392.917c0-193.611 172.257-357.327 404.306-387.222 15.659-2.847 37.014-9.966 42.709-24.202 4.271-12.813 2.847-31.32 1.423-44.132 0 0-5.695-34.166-7.118-41.284-2.847-12.813-9.966-48.403 41.284-25.625 51.25 21.354 279.028 163.716 380.104 280.452v0c71.181 76.875 105.347 155.174 105.347 242.014zM323.16 374.695h-96.806c-14.236 0-25.625 11.389-25.625 25.625v190.764c0 14.236 11.389 25.625 25.625 25.625s25.625-11.389 25.625-25.625v-166.563h71.181c14.236 0 25.625-11.389 25.625-25.625 0-12.813-11.389-24.202-25.625-24.202zM422.813 398.896c0-14.236-11.389-25.625-25.625-25.625s-25.625 11.389-25.625 25.625v192.188c0 14.236 11.389 25.625 25.625 25.625s25.625-11.389 25.625-25.625v-192.188zM653.438 398.896c0-11.389-7.118-21.354-17.084-24.202-2.847-1.423-5.695-1.423-8.541-1.423-8.541 0-15.659 4.271-19.93 9.966l-98.229 133.82v-119.584c0-14.236-11.389-25.625-25.625-25.625s-25.625 11.389-25.625 25.625v193.611c0 11.389 7.118 19.93 17.084 24.202 2.847 1.423 5.695 1.423 8.541 1.423 8.541 0 15.659-4.271 19.93-9.966l98.229-133.82v118.159c0 14.236 11.389 25.625 25.625 25.625s25.625-11.389 25.625-25.625v-192.188zM810.035 521.328c14.236 0 25.625-11.389 25.625-25.625s-11.389-25.625-25.625-25.625h-71.181v-45.555h71.181c14.236 0 25.625-11.389 25.625-25.625s-11.389-25.625-25.625-25.625h-96.806c-14.236 0-25.625 11.389-25.625 25.625v95.382c0 0 0 0 0 0s0 0 0 0v96.806c0 14.236 11.389 25.625 25.625 25.625h96.806c14.236 0 25.625-11.389 25.625-25.625s-11.389-25.625-25.625-25.625h-71.181v-45.555h71.181z" />
<glyph unicode="&#xe906;" glyph-name="heart-o" d="M882.64 803.203c-39.861 29.896-86.841 49.827-136.666 56.945-85.416 11.389-169.409-14.236-233.472-71.181-62.639 56.945-148.056 82.57-233.472 71.181-49.827-7.118-96.806-25.625-136.666-56.945-72.604-55.521-113.889-139.514-113.889-229.202 0-76.875 29.896-149.479 85.416-203.577l347.361-344.514c12.813-12.813 29.896-19.93 48.403-19.93 17.084 0 34.166 7.118 48.403 19.93l54.097 54.097c14.236 14.236 14.236 37.014 0 51.25s-37.014 14.236-51.25 0l-49.827-49.827-344.514 341.667c-42.709 39.861-65.486 93.959-65.486 152.327 0 66.909 31.32 129.549 85.416 172.257 29.896 22.778 65.486 37.014 102.5 42.709 68.334 8.541 135.243-12.813 183.646-61.216l39.861-39.861 39.861 38.438c48.403 48.403 115.313 69.757 183.646 61.216 37.014-4.271 72.604-19.93 102.5-41.284 56.945-42.709 88.264-108.195 85.416-179.375-1.423-55.521-25.625-109.618-68.334-150.903l-183.646-182.222c-14.236-14.236-14.236-37.014 0-51.25s37.014-14.236 51.25 0l183.646 182.222c55.521 55.521 86.841 125.278 89.688 199.306 2.847 93.959-38.438 180.799-113.889 237.743z" />
<glyph unicode="&#xe907;" glyph-name="heart-e" d="M795.799 838.793c-93.959 18.507-212.118-15.659-283.299-136.666-71.181 123.854-189.341 160.868-280.452 140.938-122.431-25.625-202.153-139.514-203.577-288.993-1.423-156.597 126.702-229.202 229.202-288.993 17.084-9.966 35.591-21.354 51.25-29.896 101.077-64.063 187.917-189.341 187.917-190.764l15.659-22.778 15.659 22.778c1.423 1.423 93.959 129.549 187.917 192.188 19.93 12.813 41.284 27.048 64.063 38.438 101.077 59.791 217.813 130.972 216.389 280.452-1.423 146.632-79.722 257.674-200.729 283.299zM760.209 307.785c-22.778-14.236-44.132-27.048-65.486-41.284-75.452-51.25-149.479-139.514-180.799-180.799-29.896 41.284-101.077 126.702-183.646 180.799-15.659 9.966-35.591 21.354-52.673 31.32-98.229 56.945-210.695 122.431-210.695 256.25 1.423 130.972 68.334 229.202 173.681 250.556 14.236 2.847 28.472 2.847 42.709 2.847 88.264 0 167.986-58.368 213.542-156.597l17.084-38.438 17.084 38.438c56.945 129.549 169.409 167.986 257.674 149.479 81.146-17.084 169.409-89.688 170.834-244.861-1.423-128.125-102.5-189.341-199.306-247.709z" />
<glyph unicode="&#xe908;" glyph-name="heart" d="M928.195 793.237c-45.555 46.979-109.618 69.757-189.341 69.757-22.778 0-45.555-4.271-68.334-11.389-22.778-8.541-45.555-18.507-65.486-32.743s-37.014-25.625-51.25-38.438c-14.236-11.389-28.472-24.202-41.284-38.438-12.813 12.813-27.048 25.625-41.284 38.438-14.236 11.389-31.32 24.202-51.25 38.438s-41.284 24.202-65.486 32.743-45.555 11.389-68.334 11.389c-81.146 0-143.784-22.778-189.341-69.757s-68.334-109.618-68.334-190.764c0-24.202 4.271-51.25 12.813-76.875 8.541-27.048 18.507-48.403 28.472-66.909 11.389-18.507 22.778-37.014 37.014-54.097s24.202-29.896 29.896-37.014c5.695-7.118 11.389-11.389 14.236-14.236l337.396-335.972c7.118-7.118 14.236-9.966 24.202-9.966s17.084 2.847 24.202 9.966l335.972 334.549c82.57 85.416 123.854 169.409 123.854 250.556s-22.778 145.209-68.334 190.764z" />
<glyph unicode="&#xe909;" glyph-name="google-plus" d="M335.972 126.987c-169.409 0-307.5 136.666-307.5 307.5s138.091 307.5 307.5 307.5c82.57 0 152.327-29.896 206.424-81.146l-83.993-79.722c-22.778 21.354-62.639 46.979-122.431 46.979-105.347 0-190.764-86.841-190.764-195.034s85.416-195.034 190.764-195.034c122.431 0 167.986 88.264 175.104 132.396h-175.104v105.347h290.417c2.847-15.659 5.695-31.32 5.695-51.25 0-173.681-118.159-297.535-296.111-297.535zM996.529 390.355h-88.264v-88.264h-88.264v88.264h-86.841v88.264h86.841v88.264h88.264v-88.264h88.264z" />
<glyph unicode="&#xe90a;" glyph-name="favorite" d="M909.688 709.244c-19.93 34.166-42.709 59.791-64.063 74.028-22.778 15.659-42.709 27.048-62.639 31.32-18.507 5.695-31.32 7.118-35.591 7.118-4.271 2.847-7.118 2.847-12.813 2.847s-11.389 0-19.93 0c-21.354 0-49.827-5.695-86.841-15.659-38.438-9.966-75.452-34.166-113.889-71.181-38.438 38.438-75.452 61.216-113.889 71.181s-66.909 15.659-85.416 15.659c-8.541 0-15.659 0-19.93 0-5.695 0-8.541-1.423-11.389-1.423-4.271 0-15.659-2.847-35.591-7.118-18.507-5.695-39.861-15.659-62.639-31.32s-44.132-41.284-65.486-75.452c-24.202-35.591-34.166-83.993-34.166-146.632 0-58.368 19.93-116.736 61.216-176.528s88.264-113.889 138.091-163.716 98.229-91.111 142.361-123.854 68.334-49.827 71.181-52.673c2.847-1.423 4.271-2.847 5.695-2.847s4.271 0 5.695 0 4.271 0 5.695 0c2.847 0 4.271 1.423 5.695 2.847 4.271 2.847 28.472 19.93 71.181 52.673 45.555 34.166 92.534 74.028 143.784 123.854 49.827 49.827 96.806 103.923 138.091 163.716 45.555 61.216 65.486 119.584 65.486 177.952 1.423 61.216-9.966 111.041-29.896 145.209zM566.597 592.508c17.084-29.896 27.048-62.639 27.048-95.382 0-49.827-12.813-81.146-38.438-89.688-27.048-8.541-39.861-14.236-41.284-14.236s-15.659 5.695-41.284 14.236c-27.048 8.541-38.438 38.438-38.438 89.688 0 32.743 8.541 65.486 27.048 95.382 19.93 29.896 38.438 55.521 54.097 78.298 17.084-21.354 35.591-46.979 51.25-78.298zM881.217 497.126c-8.541-24.202-19.93-48.403-37.014-75.452-15.659-27.048-37.014-54.097-59.791-82.57-22.778-29.896-51.25-59.791-82.57-89.688-38.438-37.014-76.875-69.757-112.466-96.806s-59.791-46.979-75.452-58.368c-15.659 11.389-39.861 29.896-75.452 58.368-35.591 27.048-72.604 59.791-112.466 96.806-31.32 29.896-59.791 59.791-83.993 89.688-21.354 28.472-42.709 58.368-59.791 82.57-17.084 25.625-28.472 51.25-37.014 75.452s-12.813 46.979-12.813 66.909c0 98.229 25.625 158.021 75.452 179.375s76.875 32.743 79.722 32.743h2.847l5.695 1.423c0 0 5.695 0 17.084 1.423 17.084 0 41.284-4.271 72.604-12.813s62.639-28.472 96.806-61.216c-38.438-45.555-64.063-83.993-76.875-121.007s-18.507-64.063-18.507-88.264c0-54.097 15.659-92.534 44.132-115.313s54.097-34.166 79.722-34.166 52.673 11.389 81.146 34.166c31.32 22.778 44.132 62.639 44.132 116.736 0 22.778-5.695 52.673-18.507 88.264s-38.438 75.452-76.875 121.007c32.743 32.743 65.486 52.673 96.806 61.216s55.521 12.813 72.604 12.813c7.118 0 12.813 0 17.084-1.423l5.695-1.423h2.847l24.202-5.695c0 0 17.084-8.541 52.673-27.048 27.048-17.084 45.555-42.709 58.368-72.604s19.93-66.909 19.93-109.618c2.847-19.93-1.423-41.284-9.966-65.486z" />
<glyph unicode="&#xe90b;" glyph-name="facebook" d="M763.056 757.646v160.868h-155.174c-109.618 0-197.882-88.264-197.882-197.882v-150.903h-148.056v-179.375h148.056v-439.897h179.375v439.897h148.056l24.202 179.375h-170.834v125.278c0 34.166 28.472 62.639 62.639 62.639h109.618z" />
<glyph unicode="&#xe90c;" glyph-name="eye" d="M992.258 447.299l-2.847 5.695c-9.966 15.659-27.048 39.861-49.827 71.181s-54.097 64.063-92.534 96.806c-24.202 19.93-48.403 37.014-75.452 52.673-27.048 14.236-54.097 27.048-81.146 37.014-28.472 9.966-56.945 17.084-86.841 22.778s-59.791 7.118-91.111 7.118-61.216-2.847-92.534-7.118c-29.896-5.695-59.791-12.813-86.841-22.778-28.472-9.966-55.521-22.778-81.146-37.014s-51.25-32.743-74.028-52.673c-38.438-32.743-69.757-65.486-92.534-96.806s-39.861-55.521-49.827-71.181l-2.847-5.695c-2.847-4.271-4.271-7.118-4.271-12.813 0-4.271 1.423-8.541 4.271-12.813l2.847-5.695c9.966-15.659 27.048-39.861 49.827-71.181s54.097-64.063 92.534-96.806c24.202-19.93 48.403-37.014 74.028-52.673 25.625-14.236 52.673-27.048 81.146-37.014s56.945-17.084 86.841-22.778c29.896-5.695 59.791-7.118 91.111-7.118s61.216 2.847 91.111 7.118c29.896 5.695 58.368 12.813 86.841 22.778s55.521 22.778 81.146 37.014 51.25 32.743 74.028 52.673c38.438 32.743 69.757 65.486 92.534 96.806s39.861 55.521 49.827 71.181l2.847 5.695c2.847 4.271 4.271 7.118 4.271 12.813 2.847 4.271 1.423 8.541-1.423 12.813v0 0zM817.154 285.008c-44.132-37.014-91.111-64.063-142.361-82.57s-105.347-28.472-162.291-28.472-111.041 9.966-162.291 28.472c-51.25 18.507-98.229 45.555-142.361 82.57-32.743 27.048-59.791 55.521-79.722 82.57s-37.014 49.827-46.979 66.909c9.966 17.084 25.625 39.861 46.979 66.909s46.979 55.521 79.722 82.57c44.132 37.014 91.111 64.063 142.361 82.57s105.347 28.472 162.291 28.472 111.041-9.966 162.291-28.472c51.25-18.507 98.229-45.555 142.361-82.57 32.743-27.048 59.791-55.521 79.722-82.57 21.354-27.048 37.014-49.827 46.979-66.909-9.966-17.084-25.625-39.861-46.979-66.909-19.93-27.048-46.979-55.521-79.722-82.57zM512.5 601.049c-45.555 0-85.416-15.659-118.159-48.403s-48.403-72.604-48.403-118.159c0-45.555 15.659-85.416 48.403-118.159s72.604-48.403 118.159-48.403 85.416 15.659 118.159 48.403 49.827 72.604 49.827 118.159c0 45.555-15.659 85.416-48.403 118.159-34.166 32.743-74.028 48.403-119.584 48.403zM512.5 314.903c-32.743 0-61.216 11.389-83.993 35.591-22.778 22.778-35.591 51.25-35.591 83.993s11.389 61.216 35.591 83.993c24.202 22.778 51.25 35.591 83.993 35.591s61.216-11.389 83.993-35.591c22.778-22.778 35.591-51.25 35.591-83.993s-11.389-61.216-35.591-83.993c-22.778-24.202-51.25-35.591-83.993-35.591z" />
<glyph unicode="&#xe90d;" glyph-name="envelope" d="M903.994 579.696c-83.993-58.368-169.409-116.736-253.403-175.104-35.591-24.202-93.959-74.028-138.091-74.028v0 0c-44.132 0-102.5 49.827-138.091 74.028-83.993 58.368-169.409 116.736-253.403 175.104-38.438 27.048-92.534 88.264-92.534 136.666 0 52.673 28.472 98.229 86.841 98.229h795.799c46.979 0 86.841-38.438 86.841-86.841-1.423-59.791-45.555-113.889-93.959-148.056zM996.529 141.222c0-46.979-38.438-86.841-86.841-86.841h-794.376c-48.403 0-86.841 38.438-86.841 86.841v428.507c15.659-18.507 34.166-34.166 54.097-46.979 89.688-61.216 180.799-122.431 269.063-186.493 45.555-32.743 101.077-74.028 160.868-74.028v0 0c58.368 0 115.313 41.284 160.868 74.028 88.264 64.063 179.375 125.278 269.063 186.493 19.93 12.813 38.438 28.472 54.097 46.979v-428.507z" />
<glyph unicode="&#xe90e;" glyph-name="angle-up" d="M894.029 162.577l-381.529 380.104-381.529-380.104c-5.695-5.695-14.236-9.966-22.778-9.966s-17.084 4.271-22.778 9.966l-48.403 48.403c-5.695 5.695-9.966 14.236-9.966 22.778 0 7.118 4.271 17.084 9.966 22.778l451.285 452.709c5.695 5.695 14.236 9.966 22.778 9.966s17.084-4.271 22.778-9.966l451.285-452.709c5.695-5.695 9.966-14.236 9.966-22.778 0-7.118-4.271-17.084-9.966-22.778l-48.403-48.403c-5.695-5.695-14.236-9.966-22.778-9.966-5.695 0-14.236 4.271-19.93 9.966z" />
<glyph unicode="&#xe90f;" glyph-name="angle-right" d="M240.591 52.958l380.104 381.529-380.104 381.529c-5.695 5.695-9.966 14.236-9.966 22.778s4.271 17.084 9.966 22.778l48.403 48.403c5.695 5.695 14.236 9.966 22.778 9.966 7.118 0 17.084-4.271 22.778-9.966l452.709-451.285c5.695-5.695 9.966-14.236 9.966-22.778 0-7.118-4.271-17.084-9.966-22.778l-454.132-452.709c-5.695-5.695-14.236-9.966-22.778-9.966-7.118 0-17.084 4.271-22.778 9.966l-48.403 48.403c-5.695 5.695-9.966 14.236-9.966 22.778 1.423 7.118 5.695 15.659 11.389 21.354z" />
<glyph unicode="&#xe910;" glyph-name="angle-left" d="M784.41 816.015l-380.104-381.529 381.529-381.529c5.695-5.695 9.966-14.236 9.966-22.778s-4.271-17.084-9.966-22.778l-48.403-48.403c-5.695-5.695-14.236-9.966-22.778-9.966-7.118 0-17.084 4.271-22.778 9.966l-452.709 452.709c-5.695 5.695-9.966 14.236-9.966 22.778s4.271 17.084 9.966 22.778l452.709 451.285c5.695 5.695 14.236 9.966 22.778 9.966 7.118 0 17.084-4.271 22.778-9.966l48.403-48.403c5.695-5.695 9.966-14.236 9.966-22.778-1.423-7.118-5.695-15.659-11.389-21.354z" />
<glyph unicode="&#xe911;" glyph-name="angle-down" d="M130.972 706.396l381.529-380.104 381.529 381.529c5.695 5.695 14.236 9.966 22.778 9.966s17.084-4.271 22.778-9.966l48.403-48.403c5.695-5.695 9.966-14.236 9.966-22.778 0-7.118-4.271-17.084-9.966-22.778l-452.709-452.709c-5.695-5.695-14.236-9.966-22.778-9.966-7.118 0-17.084 4.271-22.778 9.966l-451.285 452.709c-5.695 5.695-9.966 14.236-9.966 22.778 0 7.118 4.271 17.084 9.966 22.778l48.403 48.403c5.695 5.695 14.236 9.966 22.778 9.966 7.118-1.423 15.659-5.695 21.354-11.389z" />
<glyph unicode="&#xe912;" glyph-name="angle-double-left" d="M599.341 8.827l-48.403-48.403c-5.695-5.695-14.236-9.966-22.778-9.966-7.118 0-17.084 4.271-22.778 9.966l-451.285 451.285c-5.695 5.695-9.966 14.236-9.966 22.778 0 7.118 4.271 17.084 9.966 22.778l451.285 451.285c5.695 5.695 14.236 9.966 22.778 9.966 7.118 0 17.084-4.271 22.778-9.966l48.403-48.403c5.695-5.695 9.966-14.236 9.966-22.778s-4.271-17.084-9.966-22.778l-381.529-380.104 381.529-381.529c5.695-5.695 9.966-14.236 9.966-22.778-1.423-7.118-4.271-15.659-9.966-21.354zM970.904 8.827l-48.403-48.403c-5.695-5.695-14.236-9.966-22.778-9.966-7.118 0-17.084 4.271-22.778 9.966l-451.285 451.285c-5.695 5.695-9.966 14.236-9.966 22.778 0 7.118 4.271 17.084 9.966 22.778l452.709 451.285c5.695 5.695 14.236 9.966 22.778 9.966 7.118 0 17.084-4.271 22.778-9.966l48.403-48.403c5.695-5.695 9.966-14.236 9.966-22.778s-4.271-17.084-9.966-22.778l-382.952-380.104 381.529-381.529c5.695-5.695 9.966-14.236 9.966-22.778 0-7.118-4.271-15.659-9.966-21.354z" />
<glyph unicode="&#xe913;" glyph-name="angle-double-right" d="M425.66 860.146l48.403 48.403c5.695 5.695 14.236 9.966 22.778 9.966 7.118 0 17.084-4.271 22.778-9.966l452.709-451.285c5.695-5.695 9.966-14.236 9.966-22.778 0-7.118-4.271-17.084-9.966-22.778l-452.709-451.285c-5.695-5.695-14.236-9.966-22.778-9.966-7.118 0-17.084 4.271-22.778 9.966l-48.403 48.403c-5.695 5.695-9.966 14.236-9.966 22.778s4.271 17.084 9.966 22.778l381.529 380.104-381.529 381.529c-5.695 5.695-9.966 14.236-9.966 22.778 1.423 7.118 4.271 15.659 9.966 21.354zM54.097 860.146l48.403 48.403c5.695 5.695 14.236 9.966 21.354 9.966s17.084-4.271 22.778-9.966l452.709-451.285c5.695-5.695 9.966-14.236 9.966-22.778 0-7.118-4.271-17.084-9.966-22.778l-452.709-451.285c-5.695-5.695-14.236-9.966-22.778-9.966-7.118 0-17.084 4.271-22.778 9.966l-48.403 48.403c-5.695 5.695-9.966 14.236-9.966 22.778s4.271 17.084 9.966 22.778l382.952 380.104-381.529 381.529c-5.695 5.695-9.966 14.236-9.966 22.778 0 7.118 4.271 15.659 9.966 21.354z" />
<glyph unicode="&#xe914;" glyph-name="angle-double-up" d="M86.841 347.646l-48.403 48.403c-5.695 5.695-9.966 14.236-9.966 22.778 0 7.118 4.271 17.084 9.966 22.778l451.285 451.285c5.695 5.695 14.236 9.966 22.778 9.966 7.118 0 17.084-4.271 22.778-9.966l451.285-452.709c5.695-5.695 9.966-14.236 9.966-22.778 0-7.118-4.271-17.084-9.966-22.778l-48.403-48.403c-5.695-5.695-14.236-9.966-22.778-9.966-7.118 0-17.084 4.271-22.778 9.966l-380.104 382.952-381.529-381.529c-5.695-5.695-14.236-9.966-22.778-9.966-7.118 1.423-15.659 4.271-21.354 9.966zM86.841-23.917l-48.403 48.403c-5.695 5.695-9.966 14.236-9.966 22.778 0 7.118 4.271 17.084 9.966 22.778l451.285 452.709c5.695 5.695 14.236 9.966 22.778 9.966 7.118 0 17.084-4.271 22.778-9.966l451.285-452.709c5.695-5.695 9.966-14.236 9.966-22.778 0-7.118-4.271-17.084-9.966-22.778l-48.403-48.403c-5.695-5.695-14.236-9.966-22.778-9.966-7.118 0-17.084 4.271-22.778 9.966l-380.104 381.529-381.529-381.529c-5.695-5.695-14.236-9.966-22.778-9.966-7.118 0-15.659 4.271-21.354 9.966z" />
<glyph unicode="&#xe915;" glyph-name="angle-double-down" d="M938.16 521.328l48.403-48.403c5.695-5.695 9.966-14.236 9.966-22.778 0-7.118-4.271-17.084-9.966-22.778l-451.285-451.285c-5.695-5.695-14.236-9.966-22.778-9.966-7.118 0-17.084 4.271-22.778 9.966l-451.285 451.285c-5.695 5.695-9.966 14.236-9.966 22.778 0 7.118 4.271 17.084 9.966 22.778l48.403 48.403c5.695 5.695 14.236 9.966 22.778 9.966s17.084-4.271 22.778-9.966l380.104-381.529 381.529 381.529c5.695 5.695 14.236 9.966 22.778 9.966 7.118-1.423 15.659-4.271 21.354-9.966zM938.16 892.89l48.403-48.403c5.695-5.695 9.966-14.236 9.966-22.778 0-7.118-4.271-17.084-9.966-22.778l-451.285-451.285c-5.695-5.695-14.236-9.966-22.778-9.966-7.118 0-17.084 4.271-22.778 9.966l-451.285 452.709c-5.695 5.695-9.966 14.236-9.966 22.778 0 7.118 4.271 17.084 9.966 22.778l48.403 48.403c5.695 5.695 14.236 9.966 22.778 9.966s17.084-4.271 22.778-9.966l380.104-382.952 381.529 381.529c5.695 5.695 14.236 9.966 22.778 9.966 7.118 0 15.659-4.271 21.354-9.966z" />
<glyph unicode="&#xe916;" glyph-name="blog" d="M1.651 529.417h50.909l48.899-193.235 47.436 193.235h38.864l45.247-194.689 48.169 194.689h52.368l-79.087-276.607-41.002 0.034-45.392 183.208-46.105-183.214-39.918-0.028-80.388 276.607zM347.264 529.417h50.909l48.899-193.235 47.436 193.235h38.864l45.247-194.689 48.169 194.689h52.368l-79.087-276.607-41.002 0.034-45.393 183.208-46.104-183.214-39.918-0.028-80.388 276.607zM692.877 529.417h50.908l48.899-193.235 47.437 193.235h38.863l45.247-194.689 48.169 194.689h52.368l-79.086-276.607-41.002 0.034-45.393 183.208-46.104-183.214-39.919-0.028-80.387 276.607z" />
<glyph unicode="&#xe917;" glyph-name="instagram" d="M733.698 937h-437.35c-148.518 0-269.348-120.836-269.348-269.36v-437.348c0-148.522 120.83-269.354 269.348-269.354h437.349c148.533 0 269.364 120.837 269.364 269.354v437.348c0.006 148.524-120.83 269.36-269.363 269.36zM916.466 230.292c0-100.769-81.989-182.751-182.759-182.751h-437.359c-100.763-0.008-182.747 81.982-182.747 182.751v437.348c0 100.769 81.984 182.76 182.747 182.76h437.349c100.772 0 182.763-81.989 182.763-182.76v-437.348h0.006zM515.029 700.464c-138.681 0-251.504-112.824-251.504-251.508 0-138.676 112.823-251.493 251.504-251.493 138.686 0 251.511 112.816 251.511 251.493-0.001 138.685-112.826 251.508-251.511 251.508zM515.029 284.068c-90.921 0-164.902 73.967-164.902 164.893 0 90.932 73.969 164.91 164.902 164.91s164.907-73.978 164.907-164.91c-0.001-90.926-73.983-164.893-164.907-164.893zM777.086 773.896c-16.687 0-33.077-6.755-44.861-18.589-11.841-11.779-18.645-28.174-18.645-44.918 0-16.689 6.811-33.080 18.645-44.919 11.776-11.772 28.175-18.589 44.861-18.589 16.74 0 33.079 6.817 44.919 18.589 11.833 11.839 18.588 28.235 18.588 44.919 0 16.744-6.755 33.14-18.588 44.918-11.779 11.835-28.179 18.589-44.919 18.589z" />
</font>
</defs>
</svg>
